Best Obs Settings For Nvenc Streaming

9% of the work so his settings are bullshit. 265 4K footage recorded at 160Mbps. what are the settings to sync my game footage with my mic my webcam and skype. run from the official NVIDEA web site. I stream on twitch and for the past couple weeks have been messing around with my settings to try and get the best experience possible for my viewers! I used to run 1080p60 with 6000bitrate and fast preset, but my stream looks a little fuzzy, depending on the game. This can either be NVENC or QuickSync. and he shows off HIS obs settings, but then forgets to tell people his capture card does 99. This means viewers will get to choose what quality to stream in, so it’s best to go for the highest quality possible. - ffmppeg-advanced-playbook-nvenc-and-libav-and-vaapi. The Streamlabs OBS Facebook Live settings for 2020 are simple and easy once you know what each setting does and needs to be set at. net Some Extra Notes and Tips. Using a lower bitrate does not solve the issue. Best OBS Settings for Streaming on Twitch, Mixer, or YouTube With all of the streaming programs out there, it's to no one's surprise that OBS Studio is the go-to choice for most streamers. We encourage streamers to play with all the settings to figure out what’s best for them. The Best OBS Settings For Streaming Professionally In 2020. Set your desired Resolution: the maximum supported resolution is 720p (1280 x 720) at 30 frames per second. If you use both, you can then enable the. BROADCAST SETTINGS. Press question mark to learn the rest of the keyboard shortcuts. For Nvidia cards we used the NVENC option in OBS, and set it to use the High Quality preset at 6 Mbps. To get started, you'll need to set up Streamlabs OBS. If you are so new to OBS software and want to own an OBS alternative for easier one-click recording, you can move on to RecMaster screen recorder to create high-quality screencast in clicks. We are not professionals. You can also optimize OBS itself to make sure that your stream quality is solid. What is the best settings for Nvenc. Add a Theme: There are over 250 beautifully hand-crafted overlay themes available for free. Grow with Streamlabs Open Broadcast Software (OBS), alerts, 1000+ overlays, analytics, chatbot, tipping, merch and more. Fixed range of saturation and hue sliders was reversed in Game Capture HD properties for OBS/XSplit. You need to be careful with this setting because even one step faster or slower can have a huge impact on CPU usage. Its features extend far beyond the simple setup shown here. This log is without shutting down first or stopping the stream. The OBS default is very fast, which for the majority of cases is the best balance between CPU usage and video quality. In my PC I have an i7 8700k and RTX 2070. Looks like you've chosen the high quality preset already, though there are other settings that you MIGHT want to fiddle with, but frankly, bitrate is king. OBS vs XSplit score: 1:3. The GeForce GTX 1050 is best suited for resolutions up to and including 1920x1080, so our recommendation would be to use 1600x900 in order to get the most out of your settings. Streaming at a higher resolution like 1080p requires a higher bitrate, and a higher frame rate takes more encoding power. Getting and entering of your credentials for streaming service (URL and Stream key) 2. Facebook Live Select Facebook Live from the dropdown list of Streaming Services. You can create multiple scenes and switch between them during your stream. These sources can be combined. But actually not that much has changed! The basic things are the same. It’s also important to use "auto" ingest for the best ingest at that time if available in your streaming software. Streamlabs Obs is the best encoder I haver ever used, but it would be better if it use less cpu such actually it use When trying to stream and record using nvenc. Graphics processing or hard drive space isnt a worry, Im just looking for the best settings. Encoding video is a very CPU-intensive operation, and OBS is no exception. Best Settings For Streaming With Streamlabs OBS. Cloud-based and used by 70% of Twitch. The Best OBS Settings for Live Streaming. helping deliver best-in-class output quality. Below are my current desktop components: CPU: Intel 9900K 5. Next, open your web browser and go to the streaming service’s Control Panel, copy the Stream Key, and paste it into this field. Now I'm looking for the "perfect" settings to get the best quality which stands in common with the bitrate, so everybody can. Gamers can share their gaming experience with a streaming audience with lower overhead and higher quality with Turing’s new NVENC*. If you want the lowest possible latency, use FTL. Most parameters that would cause any visual differences are actually just trade-offs (i. In the OBS settings pane, under the “Output” section, the “Advanced” Output Mode option hides the juicy hardware encoding options. 🔴 UPDATED 2020 GUIDE HERE 👉 https://youtu. Slower encode produces better quality, but has more latency. Best Settings For Streaming With Streamlabs OBS. This guide works for OBS Studio, OBS. be/JRKmNU6U-E0 The best OBS settings for streaming on Twitch at 60 FPS with no-lag and the best possible image quali. When NVENC/VCE/QSV is selected this will use your graphics card to do your encoding instead of your CPU, effectively relieving some workload from the CPU. Example of settings: What's also incredible is the encoding speed. Hello Guys, I've upgraded my PC to the new Skylake X 2066 platform and want to switch from NVENC to x264 encoding, because x264 performs a better quality (as I heard). This is shown in Figure 1 , which is from the Elemental Technologies White Paper “HEVC Demystified: A Primer on the H. The Intel UHD Graphics 620 (GT2) is an integrated graphics unit, which can be found in various ULV (Ultra Low Voltage) processors of the Kaby Lake Refresh generation (8th. 264 name follows the ITU-T naming convention, where the standard is a member of the H. Hey Guys! Today's video I'm going over my settings for streaming with the new OBS NVENC Update. Fortunately, H. Open Broadcaster Software. In the Hotkey settings, set a hotkey for saving the replay buffer. Streamlabs OBS has optimized game-specific x264 and Nvenc Coder settings which ensures that your videos look 2 times better than normal streaming videos. 26x line of VCEG video coding standards; the MPEG-4 AVC name relates to the naming convention in ISO/IEC MPEG, where the standard is part 10 of ISO/IEC 14496, which is the suite of standards known as MPEG-4. If you want to get the most quality, use RTMP with up to 10 Mbps and B-Frames. Getting and entering of your credentials for streaming service (URL and Stream key) 2. This tutorial will cover the settings you can optimize to achieve the best quality recording. In this tutorial we’ll show you how to stream on twitch with OBS Studio streaming software. Resolution is the number of pixels spread across a display and is usually written in the form of horizontal pixels x vertical pixels, such as 1920 x 1080. Then, follow the instructions below. 83: NVIDIA_NVENC_NEW:. Nevertheless, the few changes you have to make will greatly enhance your overall experience. Recommended: ON Quality Balance-Static picture: 9-10-If you scrolling a lot: 7-8-Video or games: 5-6-If you are using CBR just. 264 – NVENC Turing – H. The "quality balance" setting will have no effect as the quality will be determined entirely by your bitrate, and x264 will try to ensure your stream goes out at exactly at bitrate specified. In video encoding, two-pass encoding is usually controlled by the average bitrate setting or by the bitrate range setting (minimal and maximal allowed bitrate) or by the target video file size setting. How to stream from Shadow and only on Shadow; OBS settings; There is almost nothing to change to optimize your stream on OBS. 5 Mbit/s, so you need to lower your CRF to about 24 to only get half the bitrate. Specs: 1080, 6700K, 24GB R. 101 Stream #0:0, 0, 1/15360: Video: h264 (h264_nvenc) (Main), 1 reference frame ([33][0][0][0] / 0x0021), nv12, 1920x1080, 0/1, q=-1--1, 2000 kb/s, 60 fps, 15360 tbn, 60 tbc Metadata: encoder : Lavc57. Set the video Bitrate to 1/3 of your upload speed, then Set Encoder to x264 for CPU or NVENC for Video Card. August 5th, 2019, FFmpeg 4. Download OBS Studio. 0, reduces the FPS impact of streaming by up to 66% compared to the previous version, meaning higher FPS for your games. AMD Radeon RX 400, 500, Vega/II, Navi series GPU or better; Ubuntu Linux 18. Go to Settings → Advanced Sources and get your source connection info: “Primary Server” and “Stream Name” (this is your private stream key). Add a Theme: There are over 250 beautifully hand-crafted overlay themes available for free. 264 and HEVC are very similar from an encoding perspective, just as MPEG-2 and H. Then, follow the instructions below. Set the video Bitrate to 1/3 of your upload speed, then Set Encoder to x264 for CPU or NVENC for Video Card. net/ Google Conversion - goo. 0 OS ????? Windows 7 (x64) CPU Pentium Dual-Core E6600 @ 3. Cloud-based and used by 70% of Twitch. Gamers can share their gaming experience with a streaming audience with lower overhead and higher quality with Turing’s new NVENC*. 265 Video Codec. In this article we will cover some of the basic and advanced settings within Streamlabs OBS to get you streaming live on Facebook. Also, your computer should have at least 8GB of RAM, with 16GB being the recommendation. How to Configure OBS Studio for Streaming A major benefit to OBS’ improved NVENC support is that with Nvidia’s RTX GPUs, you also get a visual quality improvement similar to that of x264 Medium preset, but without the additional load that the x264 Medium would put on your system!. The best way to understand why this is used is to think of a movie — when there are shots that are totally, absolutely black, like scene. In the “Simple“ output mode you can edit all the settings essential to stream, such as the video/audio bitrate and encode. ) This guide is about OBS settings in. 9%): 919 Mbps = 115 MB/s = 6. Setting up streaming on OBS is fairly easy to accomplish. With the release of the Ryzen 3000 processors (Ryzen third-gen processors), AMD enhances on what was already great Ryzen second-gen CPUs. How to Configure OBS Studio for Streaming A major benefit to OBS’ improved NVENC support is that with Nvidia’s RTX GPUs, you also get a visual quality improvement similar to that of x264 Medium preset, but without the additional load that the x264 Medium would put on your system!. Set your desired Resolution: the maximum supported resolution is 720p (1280 x 720) at 30 frames per second. Although Streamlabs OBS is known in particular for its live streaming capabilities, it is also possible to record your computer screen as well. Miele French Door Refrigerators; Bottom Freezer Refrigerators; Best Miele Refrigerator Review. Although OBS is one of the best free video editing suites available right now, it does have its faults. Below are instructions on how to best optimize the settings to be compatible with Facebook Live's video guidelines. That way, you can pull up your web browser on your TV, or your copy of Photoshop CC that isn’t on the Mac you’re streaming with. 4 hotfix changes: Added an option to use MixrElixr when using Mixer in the streaming section of settings Fixed a crash that could occur when using secure input fields on macOS. The game optimized encoder settings are currently only available when using software (x264) encoding and using Twitch as streaming service. Browser sources will now have their pre-24. If you wish to stream at the same resolution as your Base (Canvas) Resolution, simply uncheck this box. What is happening is that every so often my stream will stutter slightly, and everytime it stutters it gets more and more delayed. Streaming at a higher resolution like 1080p requires a higher bitrate, and a higher frame rate takes more encoding power. If you have the bandwidth and encoding power to stream at 1080p, 60 fps, great! If not, try one of the recommended settings below to optimize your video quality and stability. Under obs-studio suddenly cannot record or stream. In video encoding, two-pass encoding is usually controlled by the average bitrate setting or by the bitrate range setting (minimal and maximal allowed bitrate) or by the target video file size setting. Scroll down and toggle the box next to the option that says “Dynamically change bitrate when dropping frames while streaming”. Fixed OBS crashes when setting the video format in Game Capture HD properties. How to Get The Best OBS Studio setting has been a talking point in the streaming genre for many years. Enable Advanced Encoder Settings: Unchecked. To see the best possible comparison, you should watch the video at the top in 4K. Users can also take advantage of the advanced video streaming capabilities built into Radeon™ Software Adrenalin 2020 Edition. Ob Twitch, Youtube, Facebook oder Dailymotion. Making the Ryzen 3600, Ryzen 7 3700X, Ryzen 9 3900X, and Ryzen 3950X and the best value streaming and multitasking CPUs on the market. I'm wanting to take the load off my Cpu so I can get a solid 240+ frames in Overwatch and at least 144fps in Fortnite. NVIDIA NVENC H. This should allow you to stream content at 720p, but you can increase this. OBS (Open Broadcast Software) is an encoding platform supported by StreamSpot. Be it simply recording your gameplay or even streaming it side by side, OBS is the tool for you. Set up Streamlabs. Streamlabs OBS is a gaming focused encoder with built in theming and animation support. Also, you can only scale down and cannot upscale a 720p canvas to a 1080p stream. Fixed a crash that sometimes occurred when editing a video or tags of a video in the editor. Stell die Settings mal so ein wie hier: https: Mein Encoder war NVENC oder so und ich habe es jetzt auf x264 umgestellt, werde es später testen. It uses 20% less CPU and still offers you the same or better video quality which makes streaming even more amazing. OBS Studio - Free and open source software for live streaming and screen recording - obsproject/obs-studio Release Candidate 2 Fixes/Changes Fixed a bug where there was a chance for a crash on shutdown Fixed a crash when starting certain types of encoders before starting the new NVENC encoder Fixed aut. mp4 You can see available presets, other options, and encoder info with ffmpeg -h encoder=h264_nvenc or ffmpeg -h encoder=hevc_nvenc. That way, you can pull up your web browser on your TV, or your copy of Photoshop CC that isn’t on the Mac you’re streaming with. Fixed range of saturation and hue sliders was reversed in Game Capture HD properties for OBS/XSplit. Encoding video is a very CPU-intensive operation, and OBS is no exception. In this case, you will have two options on Twitch – 1080p or 900p. 0 audio behavior by default; to use OBS to control the browser source audio, users must now use the "Control Audio via OBS" option in the browser source properties. When NVENC/VCE/QSV is selected this will use your graphics card to do your encoding instead of your CPU, effectively relieving some workload from the CPU. 9%): 919 Mbps = 115 MB/s = 6. OBS is a long-time standard in live streaming and is available on PC and Mac. Output Mode: Advanced. The best way to understand why this is used is to think of a movie — when there are shots that are totally, absolutely black, like scene. This guide works for OBS Studio, OBS. Hi - Tried streaming with Gamecaster last night with Modern Warfare, and got extreme input lag and stuttering, Reverted back to OBS and recieved no issues, I have minimum specs easily, so not sure why this happens: Edit: Cannot input links to the post to showcase this, but the games unplayable with Gamecaster Gamecaster settings: Streaming:- Ingest Server: Best Match Resolution: 720p HD Codec. So addressing these two HEVC codecs delivers the best bang for our editorial buck. OBS (Open Broadcast Software) is an encoding platform supported by StreamSpot. BF1 is a known CPU hog, using the NVENC encoder takes 90% of the streaming load off the CPU. Reduce your overlay to one browser source. If you're experiencing "shakey" streams, try adjusting your bframes to equal "0" (zero). If you have the bandwidth and encoding power to stream at 1080p, 60 fps, great! If not, try one of the recommended settings below to optimize your video quality and stability. 264 – NVENC Turing – H. NVENC should help a lot if you have the hardware to support it so you should definitely try that out. These sources can be combined. 264 QuickSync Coffee Lake. Watch live video game streams from popular creators on Facebook. Probably the best tool of the lot, simply because of its open-source nature and flexibility, Open Broadcaster Software or OBS is the preferred tool for a lot of gamers out there. For this tutorial we are going to use the 64-bit version of OBS. I don't think single PC X264 is a good option anymore. mp4 You can see available presets, other options, and encoder info with ffmpeg -h encoder=h264_nvenc or ffmpeg -h encoder=hevc_nvenc. When NVENC/VCE/QSV is selected this will use your graphics card to do your encoding instead of your CPU, effectively relieving some workload from the CPU. Profile mai. In the “Simple“ output mode you can edit all the settings essential to stream, such as the video/audio bitrate and encode. This is already the default option. Nvidia users can enable “nvenc”. How to Optimize OBS for the Best Stream Performance. The Best OBS Settings For Streaming Professionally In 2020. it's not THAT bad looking, it doesn't look amazing but it is a life saver if your CPU is older and can't handle streaming on top of gaming. When it comes to live streaming, OBS (short for Open Broadcaster Software) is one of the most popular pieces of streaming software on the market. run from the official NVIDEA web site. You can start your livestream by setting the “Video Bitrate“ to 350. Stream Settings. You select this in the OBS settings > Stream, under service. Best OBS Streaming Settings in Under 5 Minutes! For High End PC'S! 2019-2020. The definitive graphics and performance guide for Shadow of the Tomb Raider on PC. In this tutorial we’ll show you how to stream on twitch with OBS Studio streaming software. It allows you to view multiple windows like a chatbox, video editor, Stream labs OBS for PC dashboard, etc in one. -Nvidia NVENC GTX 600 GPU or higher, 15% of te GPU performance. tv and OBS settings for my PC: A head set mic that does not here outside sound: Best video streaming/capturing software/settings. Please note, this tutorial will specifically cover the best settings to record only. Download FFmpeg builds for Windows or macOS, available as LGPL or GPL. To see the best possible comparison, you should watch the video at the top in 4K. Output #0, mp4, to 'out. 0, will leverage the NVIDIA Video Codec SDK, which will greatly improve performance and reduce the FPS impact of streaming and recording. If your computer is slow, you can try to update the graphics drivers to boost the PC performance. The "quality balance" setting will have no effect as the quality will be determined entirely by your bitrate, and x264 will try to ensure your stream goes out at exactly at bitrate specified. Everything else is default for OBS Studio. Looks like you've chosen the high quality preset already, though there are other settings that you MIGHT want to fiddle with, but frankly, bitrate is king. Download Streamlabs OBS, install and launch. be/JRKmNU6U-E0 The best OBS settings for streaming on Twitch at 60 FPS with no-lag and the best possible image quali. Go to Settings → Advanced Sources and get your source connection info: “Primary Server” and “Stream Name” (this is your private stream key). In the OBS settings pane, under the “Output” section, the “Advanced” Output Mode option hides the juicy hardware encoding options. This should be unneeded by dshow input. To get started, open OBS then click Settings, then Output, and change the Output Mode dropdown menu from Simple to Advanced — this will allow you to manually select your Rate Control. With a simple interface and tons of features, OBS studio has become the staple for stable streams on virtually all platforms. Live and the almighty StreamLabs OBS. August 5th, 2019, FFmpeg 4. The older Clarkdale microarchitecture had hardware video decoding support, but no hardware encoding support; it was known as Intel Clear Video. By natively integrating the NVIDIA Video Codec SDK, XSplit is able to offload the video encoding for both the recording and the live stream from the CPU to the GPU, allowing our users to produce high quality content without compromising on gaming performance. Join a community of players and streamers. so if you have, not a great CPU, you can switch to NVENC / AMD to let your graphics card handle the encoding process. Connection settings: Go to “File” → “Settings” → “Stream” and. OBS Studio 25. Streamlabs OBS is a gaming focused encoder with built in theming and animation support. Mit nur wenigen Klicks ist die Software konfiguriert und das Streamen kann beginnen. Browser sources will now have their pre-24. com For High End PC'S! 2019-2020 These are the BEST OBS settings for streaming on high end PC'S Whether your playing Call of Duty or Fortnite! 1080p 60fps with NO LAG On Twitch and Mixer!! New NVENC. This is not recommended unless you know what you are doing. Okay so here are my current settings for OBS Studio w/ the NVENC Encoder LINK: I was wondering what is the best settings for using the NVENC encoder … Press J to jump to the feed. Next, we built multi-track audio recording. Select NVENC (new) under Output in Settings to up your stream quality and to increase FPS. Making the Ryzen 3600, Ryzen 7 3700X, Ryzen 9 3900X, and Ryzen 3950X and the best value streaming and multitasking CPUs on the market. In battle royales, such as Fortnite , PUBG, Call of Duty: Black Ops 4 - Blackout , and Apex Legends, framerates are boosted by up to 48% compared to x264 Fast, and 27% compared to x264 Very Fast. As a general rule, if you have an Nvidia graphics card you can (and. Obs x264 recording settings. In this guide we'll go through some of those options, and what you'll want values to use. There are three output files specified, and for the first two, no -map options are set, so ffmpeg will select streams for these two files automatically. in still scenes some settings are better, in scenes with small to medium motion other settings are better, and in scenes with lots of motion yet a different set of settings are useful). Schon mal vielen Dank im Voraus. Nvenc vs x265. helping deliver best-in-class output quality. FFMpeg's playbook: Advanced encoding options with hardware-accelerated acceleration for both NVIDIA NVENC's and Intel's VAAPI-based hardware encoders in both ffmpeg and libav. What are the best streaming settings for my setup, what are the best settings i can stream at where it wont be laggy or look bad. The Best OBS Settings For Streaming Professionally In 2020. Best Encoder For Obs Coupons, Promo Codes 06-2020 Offer · #2. Change the Bandicam settings. 264, which inherited all specifications of H. To enable it for all games on your system, select “Global Settings. 264 is the best encoder in terms of quality and performance (as of 2020). The best way to understand why this is used is to think of a movie — when there are shots that are totally, absolutely black, like scene. Capture, Stream and Share Your Greatest Moments. Enable Advanced Encoder Settings: Unchecked. By default, these are saved as flv files in the user/videos folder, but you can alter this path and save type in the settings. Hi! Im looking to start a gaming YouTube channel, but most of my captures have a little washed out effect over them, but when I use DXTory, it looks almos exactly like the game. How to Get The Best OBS Studio setting has been a talking point in the streaming genre for many years. The only potential downside is the steep learning curve. If you want the lowest possible latency, use FTL. Stream Settings All the process of OBS setup for streaming can be divided into two main stages: 1. We collaborated with OBS to fine-tune these settings, so it just works! Encoder Preset: Quality. For this guide, we'll use Ctrl+Shift+S. BROADCAST SETTINGS. Learn More. Then, follow the instructions below. 4 using NVIDIA-Linux-x86_64-430. I'm wanting to take the load off my Cpu so I can get a solid 240+ frames in Overwatch and at least 144fps in Fortnite. 264 and expanded its efficiency on data save domain and upscale the maximum resolution to 7680 x 4320, also the algorithm has been optimized that better fulfilled the needs of online video streaming. NVENC should help a lot if you have the hardware to support it so you should definitely try that out. When i use obs in windows i can set higher framerate, resol, bitrate cuz in windows used amd amf encoder. If you decide to use this in a medical setting, or make a hardware hdmi input output realtime tv filter, or find another use for this, please let me know. Create a scene. First, click on the Settings button in the main view. Now many anime are distributed in such format, I do not know why, but I could not play them properly with any software player. (shadowplay) Recommended: x264 Use CBR-Bitrate will be always the same. I also included some HVEC H. The Intel UHD Graphics 620 (GT2) is an integrated graphics unit, which can be found in various ULV (Ultra Low Voltage) processors of the Kaby Lake Refresh generation (8th. Now for arguably the most important part: setting up your OBS streaming settings! We’ll cover the two most common methods of encoding here today, that being software x264 and hardware NVENC (if you have an Nvidia GPU). Click Copy and paste this into the Stream Key field in OBS Studio. Everything else is default for OBS Studio. Best answer by ghosteez 4 February 2020, 06:23 Hey there @Paxnidia Your setup is more than adequate to utilize whichever you prefer, NVENC New will provide quality similar to X264 - Fast, and typically is the preferred method for single PC, but the 9900k is more than capable. Summary of Styles and Designs. Hardware encoding is supported in both the Mac and Windows version of OBS, however the developers only recommend using it on computers running Windows. How to Get The Best OBS Studio setting has been a talking point in the streaming genre for many years. For example, if you have such high CPU usage that your PC is slow then there is a setting in OBS called Hardware (NVENC), Hardware (VCE) or Hardware (QSV) within Settings > Output > Streaming. Mit nur wenigen Klicks ist die Software konfiguriert und das Streamen kann beginnen. What are the best streaming settings for my setup, what are the best settings i can stream at where it wont be laggy or look bad. Resolution is the number of pixels spread across a display and is usually written in the form of horizontal pixels x vertical pixels, such as 1920 x 1080. Hi! I'm wanting to try out the newest update with New Nvenc. Open Broadcaster Software. Best OBS Settings for Streaming on Twitch, Mixer, or YouTube With all of the streaming programs out there, it's to no one's surprise that OBS Studio is the go-to choice for most streamers. Both 32 and 64 bit versions are available and it's absolutely free! Direct Show Video Capture - OBS Classic - Help Files. Download FFmpeg builds for Windows or macOS, available as LGPL or GPL. Once you've pasted your stream key into OBS head over to the Output Tab. If you want to mess around with more of the settings, here are our in-depth recommendations. If you’re encoding on NVENC, you can just run your app in high priority mode (e. with OBS – particularly since you can set OBS to use Nvidia's NVENC encoding. Next, we built multi-track audio recording. Have installed latest drivers for GeForce GT 710 with: nvidia driver 430. If you want to get the most quality, use RTMP with up to 10 Mbps and B-Frames. May 22, 2020. helping deliver best-in-class output quality. For new Twitch streamers, Streamlabs OBS has an Auto Optimize feature that automatically scans your internet speed and computer hardware to give you our recommended settings for your particular set up. However, if you've never used it before, OBS Studio might seem a little daunting at first. eposvox on youtube makes all these “streaming tutorial” videos…. We have also tweaked some of the background settings of NVENC to improve quality, especially for the RTX 20-Series GPUs. OBS simplifies RTMP streaming by providing presets that automatically point your stream to the correct Server URL for supported platforms. This guide works for OBS Studio, OBS. Gamers looking for a GPU for traditional games can grab a GTX card for amazing performance and value. Your clip ends up with an average bitrate of 3. If your computer is slow, you can try to update the graphics drivers to boost the PC performance. OBS Alt Cropping (Easiest and Fastest) The fastest way to crop in OBS Studio is by using the Alt method. Although Streamlabs OBS is known in particular for its live streaming capabilities, it is also possible to record your computer screen as well. After setting up the source and making it visible I can see the second monitor being captured in OBS:. mp4': Metadata: encoder : Lavf57. I spent many hours testing a combination of stream output settings in OBS to try and find the perfect recipe for the Xbox One X , i5 4670k (4-cores. 83: NVIDIA_NVENC_NEW:. Most parameters that would cause any visual differences are actually just trade-offs (i. Streamlabs Open Broadcaster Software (OBS) is a free cloud-based live streaming software for Twitch, YouTube, & Facebook. Aug 28 2020 These are the best OBS streaming settings for the new NVENC encoder in 2020 This video will show you the best settings to stream with absolutely no lag by using the new NVENC encoder in OBS. In the video he demonstrates how to install the plugin and the required runtime library, and setting up both input and output of NDI streams for OBS Studio. When i use obs in windows i can set higher framerate, resol, bitrate cuz in windows used amd amf encoder. mkv is a Matroska container file and accepts video, audio and subtitle streams, so ffmpeg will try to select one of each type. OBS will take your Base (Canvas) Resolution, filter it using your selected Downscale Filter, and then rescale it based on your select Rescale Output setting. Drop a like if you found this helpful! Boost FPS Settings in. After that, click the Settings option in that menu, and you’ll be brought to the program’s settings area. NVIDIA VIDEO CODEC SDK - Get Started System Requirements Architecture x64 and ppc64le Operating System Windows 7, 8, 10, Server 2008 R2, Server 2012, and Linux Dependencies NVENCODE API - NVIDIA Quadro, Tesla, GRID or GeForce products with Kepler, Maxwell, Pascal and Turing generation GPUs. Locate “Low Latency Mode” in the list of settings. Live and the almighty StreamLabs OBS. Best OBS Studio Settings For Recording/Streaming at 1080p/720P 60fps/30fps! (2017-2018) Links: Speed Test - www. The above command will undo all audio related flags. But actually not that much has changed! The basic things are the same. Best OBS Settings For Recording Just like with streaming, FPS and bitrate are the video settings to pay attention to. This tutorial will cover the settings you can optimize to achieve the best quality recording. To best determine the optimal ratio for your stream, let’s first define what resolutions and bitrates are and how they affect video quality. in OBS Studio or Streamlabs just run the app as Administrator, in XSplit Broadcaster toggle it in the settings) and that will ensure your stream remains smooth. The standard includes the following seven sets of capabilities, which are referred to as profiles, targeting specific classes of applications:. Streamlabs OBS has optimized game-specific x264 and Nvenc Coder settings which ensures that your videos look 2 times better than normal streaming videos. To get started, you'll need to set up Streamlabs OBS. High bitrate make a better quality, but more bandwidth. So now, I wanted to stream at 1080p60 but I really need some advice and help with my SLOBS settings. AMD Radeon RX 400, 500, Vega/II, Navi series GPU or better; Ubuntu Linux 18. App settings not saving in % appdata % for some reason? How to setting: OBS settings for low quality computer: Twitch. GPU: MSI GTX 1080 Ti Gaming Trio, Stock cooled triple fan. Your clip ends up with an average bitrate of 3. However, some people might experience high CPU utilization, and other programs running on your computer might experience degraded performance while OBS is active if your settings are too high (more…). If you want the lowest possible latency, use FTL. That is called setting up a new output which is different from in-built optimization for a specific Live video. BOARD FAMILY CHIP Desktop/ Mobile/ Server # OF CHIPS # OF NVENC /CHIP Total # of NVENC Max # of concurrent sessions H. Method 2 Convert HEVC to WMV for Windows Media Player on Windows 10. You can also optimize OBS itself to make sure that your stream quality is solid. The thing is that the Faster presets use less and Slower presets use high CPU. 265 Video Codec. As a general rule, if you have an Nvidia graphics card you can (and. Production Companies: When you are live streaming professionally, you likely need high-quality, crisp video streams for your viewers. In the video he demonstrates how to install the plugin and the required runtime library, and setting up both input and output of NDI streams for OBS Studio. -Nvidia NVENC GTX 600 GPU or higher, 15% of te GPU performance. How to Get The Best OBS Studio setting has been a talking point in the streaming genre for many years. To start streaming to your custom RTMP address, press is "Start Recording" If your settings are correct, your stream will now show on DLive. with OBS – particularly since you can set OBS to use Nvidia's NVENC encoding. This guide works for OBS Studio, OBS. He comes to this conclusion after noting the few simple steps required for each of these tasks: And here’s the catch you’ve been waiting for…oh wait! There isn’t one. Dropped frames for your custom RTMP will only show in the OBS Logs; Ensure you have enough bandwidth to upload your stream twice. In this article we will cover some of the basic and advanced settings within Streamlabs OBS to get you streaming live on Facebook. 0, will leverage the NVIDIA Video Codec SDK, which will greatly improve performance and reduce the FPS impact of streaming and recording. Scroll down and toggle the box next to the option that says "Dynamically change bitrate when dropping frames while streaming". be/JRKmNU6U-E0 The best OBS settings for streaming on Twitch at 60 FPS with no-lag and the best possible image quali. App settings not saving in % appdata % for some reason? How to setting: OBS settings for low quality computer: Twitch. Best settings depend on your preference though there's a post in OBS somewhere that I've read saying the best settings are in this order, Default > High Quality > High Quality Low Performance. In this case, you will have two options on Twitch – 1080p or 900p. Profile mai. When it comes to live streaming, OBS (short for Open Broadcaster Software) is one of the most popular pieces of streaming software on the market. Fixed range of saturation and hue sliders was reversed in Game Capture HD properties for OBS/XSplit. 101 Stream #0:0, 0, 1/15360: Video: h264 (h264_nvenc) (Main), 1 reference frame ([33][0][0][0] / 0x0021), nv12, 1920x1080, 0/1, q=-1--1, 2000 kb/s, 60 fps, 15360 tbn, 60 tbc Metadata: encoder : Lavc57. setting it to normal/fast should be fine. Stell die Settings mal so ein wie hier: https: Mein Encoder war NVENC oder so und ich habe es jetzt auf x264 umgestellt, werde es später testen. How to Get The Best OBS Studio setting has been a talking point in the streaming genre for many years. 0 OS ????? Windows 7 (x64) CPU Pentium Dual-Core E6600 @ 3. Although Streamlabs OBS is known in particular for its live streaming capabilities, it is also possible to record your computer screen as well. 9%): 919 Mbps = 115 MB/s = 6. Some people use the 32-bit version of OBS because it’s compatible with a couple more plugins, so make sure to keep that in mind. Streaming: Bitrate: Enter the Bitrate appropriate for your Upload Speed, as we discussed in the previous section. Watch live video game streams from popular creators on Facebook. Jul 24, 2020 · Today i provide an updated Best OBS settings tutorial for 2020!. Locate “Low Latency Mode” in the list of settings. OBS Studio (also known as Open Broadcaster Software ) is a free and open source software for video recording and live streaming. With a simple interface and tons of features, OBS studio has become the staple for stable streams on virtually all platforms. You might be able to lower the bitrate and increase the encoder quality to “slow” if you are to stream at a lesser resolution. Streaming: Bitrate: Enter the Bitrate appropriate for your Upload Speed, as we discussed in the previous section. I stream on twitch and for the past couple weeks have been messing around with my settings to try and get the best experience possible for my viewers! I used to run 1080p60 with 6000bitrate and fast preset, but my stream looks a little fuzzy, depending on the game. When it comes to live streaming, OBS (short for Open Broadcaster Software) is one of the most popular pieces of streaming software on the market. Hi! I'm wanting to try out the newest update with New Nvenc. OBS Studio 25. The new OBS Studio, version 23. Hello Guys, I've upgraded my PC to the new Skylake X 2066 platform and want to switch from NVENC to x264 encoding, because x264 performs a better quality (as I heard). Please use our live chat feature, contact us on +44 (0)1628 947 717 or email us at This email address is being protected from spambots. 264 Profiles. Method 2 Convert HEVC to WMV for Windows Media Player on Windows 10. For new Twitch streamers, Streamlabs OBS has an Auto Optimize feature that automatically scans your internet speed and computer hardware to give you our recommended settings for your particular set up. (shadowplay) Recommended: x264 Use CBR-Bitrate will be always the same. The only potential downside is the steep learning curve. BROADCAST SETTINGS. 06GHz (2C/2T). Best OBS settings for Periscope Producer. Turning on hardware. August 5th, 2019, FFmpeg 4. This will set x264 to use constant bitrate rather than variable bitrate. Configuring your OBS Streaming output settings. be/JRKmNU6U-E0 The best OBS settings for streaming on Twitch at 60 FPS with no-lag and the best possible image quali. This is a test designed to imitate the new NVENC settings introduced with OBS v23. If you want the lowest possible latency, use FTL. 9%): 919 Mbps = 115 MB/s = 6. Download OBS Studio. Live streaming from home: If you’re a broadcaster who occasionally wants to stream live video to viewers from home or in more casual settings, you’ll likely prefer something simple and free, like OBS Studio. I don't think it would be possible to pull this off unless you have a separate computer for capturing footage so I would choose just one between recording or streaming and optimize your OBS settings for that. But actually not that much has changed! The basic things are the same. For recording, use a hardware encoder (nvenc, quicksync) with quality-based rate control (CQP, ICQ, CRF) and no bitrate-based rate control (everything with BR in it). You select this in the OBS settings > Stream, under service. Level1Linux Duration 11. 0 OS ????? Windows 7 (x64) CPU Pentium Dual-Core E6600 @ 3. OBS simplifies RTMP streaming by providing presets that automatically point your stream to the correct Server URL for supported platforms. what are the settings to sync my game footage with my mic my webcam and skype. Best OBS settings for Periscope Producer. eposvox on youtube makes all these “streaming tutorial” videos…. Navigate to "Advanced" in the settings window. Dropped frames for your custom RTMP will only show in the OBS Logs; Ensure you have enough bandwidth to upload your stream twice. The "quality balance" setting will have no effect as the quality will be determined entirely by your bitrate, and x264 will try to ensure your stream goes out at exactly at bitrate specified. Live and the almighty StreamLabs OBS. Enable Advanced Encoder Settings: Unchecked. Yes I understand that x264 gives way better results however when I am streaming with veryfast x264 preset I drop a ton of frames with my Intel i7 2700k, anything lower looks worse then NVENC. I don't think single PC X264 is a good option anymore. OBS simplifies RTMP streaming by providing presets that automatically point your stream to the correct Server URL for supported platforms. 265 4K footage recorded at 160Mbps. 0, reduces the FPS impact of streaming by up to 66% compared to the previous version, meaning higher FPS for your games. Best CPUs for Streaming. Free and open source software for video recording and live streaming. Streaming: Bitrate: Enter the Bitrate appropriate for your Upload Speed, as we discussed in the previous section. Learn more about Streamlabs OBS. This is output from log file: 11:45:27 PM. Fixed range of saturation and hue sliders was reversed in Game Capture HD properties for OBS/XSplit. Download Streamlabs OBS, install and launch. Besides live streaming with a camera, you can also use it to stream your desktop, record a video game or record your computer screen as mp4. We recommend a high. OBS Studio plunge into the more sophisticated capture settings. There are a few other preset options but High Quality produces, as the name suggests, the. Hardware encoding is supported in both the Mac and Windows version of OBS, however the developers only recommend using it on computers running Windows. Navigate to "Advanced" in the settings window. Most of these settings can be left to their defaults when you're starting out, but this guide will help you understand how some of the more advanced options can impact your stream. わたしがTwitchで配信する際の、OBS Studio(以下OBS)の設定等を書き記します。 以下は、2019年5月現在の内容で、OBSはバージョン23. Also, your computer should have at least 8GB of RAM, with 16GB being the recommendation. Watch live video game streams from popular creators on Facebook. In other words, this option will mute the audio. Download FFmpeg builds for Windows or macOS, available as LGPL or GPL. Setup of video and audio options which are meet the recommendations of your streaming platform (eg. There are two displays. In the “Simple“ output mode you can edit all the settings essential to stream, such as the video/audio bitrate and encode. You need to be careful with this setting because even one step faster or slower can have a huge impact on CPU usage. 264 – x264, H. Users can also take advantage of the advanced video streaming capabilities built into Radeon™ Software Adrenalin 2020 Edition. Facebook Live Select Facebook Live from the dropdown list of Streaming Services. Obviously Preset Max Quality. For streaming, the newly-updated NVENC encoding will offload the task to the GPU with a minimal performance hit using OBS (Open Broadcaster Software) while providing image quality similar to or better than x264 Fast quality. With numerous functions that are tweakable by the user, the software gives a unique experience where the user has control over almost all the aspects of the recording/streaming. ” To enable it for one or more specific games, select “Program Settings” and choose the game you want to enable it for. What is the best settings for Nvenc. Both 32 and 64 bit versions are available and it's absolutely free! Direct Show Video Capture - OBS Classic - Help Files. Copy and paste the Stream Key into the Stream Key box in the Broadcast Settings menu in OBS, then click Apply. mp4': Metadata: encoder : Lavf57. The desired OBS streaming mode: callback: Defines if to try to automatically detect the best settings for streaming: 0. Stream Settings All the process of OBS setup for streaming can be divided into two main stages: 1. HandBrake is a free and open-source transcoder for digital video files, originally developed in 2003 by Eric Petit (a. In my PC I have an i7 8700k and RTX 2070. Select Add. Below are instructions on how to best optimize the settings to be compatible with Facebook Live's video guidelines. Hotfixes have been released for this build. Now I'm looking for the "perfect" settings to get the best quality which stands in common with the bitrate, so everybody can. In video encoding, two-pass encoding is usually controlled by the average bitrate setting or by the bitrate range setting (minimal and maximal allowed bitrate) or by the target video file size setting. You select this in the OBS settings > Stream, under service. Usage example: ffmpeg -i input -c:v h264_nvenc -profile high444p -pixel_format yuv444p -preset default output. Click the setting box to the right of the setting and select “Ultra” in the list. Click the down arrow to expand the All Networks settings, then click Choose media streaming options… 5. The Streamlabs OBS Facebook Live settings for 2020 are simple and easy once you know what each setting does and needs to be set at. わたしがTwitchで配信する際の、OBS Studio(以下OBS)の設定等を書き記します。 以下は、2019年5月現在の内容で、OBSはバージョン23. You can stream at [email protected] in OBS at 1080p, but the NVENC quality is better. Once again, the settings above are suggested, but for both 1080p and 900p, 6,000kbps is recommended. tv and OBS settings for my PC: A head set mic that does not here outside sound: Best video streaming/capturing software/settings. If you have the bandwidth and encoding power to stream at 1080p, 60 fps, great! If not, try one of the recommended settings below to optimize your video quality and stability. Media Capture and Sharing makes it easy for anyone to capture videos, images or gifs and save them to view, or share later. This guide works for OBS Studio, OBS. In the general settings, check the box to Automatically start replay buffer when streaming. This article will attempt to demystify OBS settings for affiliate Twitch streamers. Learn more about Streamlabs OBS. If you already have configured OBS before but want best settings to stream HD videos in 1080p 60Fps then you need to tweak your settings. How to Get The Best OBS Studio setting has been a talking point in the streaming genre for many years. Record everything from your monitor/screen/window or camera/capture card and live stream or save to your HDD as MP4/MKV. Using a lower bitrate does not solve the issue. These are the BEST OBS settings for streamin. In addition some Nvidia motherboards come with integrated onboard GPUs. If you're experiencing "shakey" streams, try adjusting your bframes to equal "0" (zero). To get started, open OBS then click Settings, then Output, and change the Output Mode dropdown menu from Simple to Advanced — this will allow you to manually select your Rate Control. Right-click the Scenes box in OBS. x264 is recommended to use for the best quality if NVIDIA NVENC H. I've even tried learning as much as I could about all the different h264 options and tried custom settings. Slower encode produces better quality, but has more latency. 7 added advanced settings for NVENC. To see the best possible comparison, you should watch the video at the top in 4K. The Best OBS Settings For Streaming Professionally In 2020. わたしがTwitchで配信する際の、OBS Studio(以下OBS)の設定等を書き記します。 以下は、2019年5月現在の内容で、OBSはバージョン23. ” To enable it for one or more specific games, select “Program Settings” and choose the game you want to enable it for. Please remember, everybody's set up is going to be different so make sure to play around with the settings yourself to find out what works best for you. This article will attempt to demystify OBS settings for affiliate Twitch streamers. To get started, open OBS then click Settings, then Output, and change the Output Mode dropdown menu from Simple to Advanced — this will allow you to manually select your Rate Control. Next, you need to actually sort out the video settings for what you’re going to be sending to the Twitch servers. If you are so new to OBS software and want to own an OBS alternative for easier one-click recording, you can move on to RecMaster screen recorder to create high-quality screencast in clicks. Reduce your overlay to one browser source. This filter was a feature request of mine since 2013. 264 is the best encoder in terms of quality and performance (as of 2020). Getting and entering of your credentials for streaming service (URL and Stream key) 2. Hallo Leute, welche Bitrate und Puffergröße empfehlt ihr mir zum allgemeinen Aufnehmen von Spielenmit OBS (Open Broadcaster Software)? Beispiele wären Osu!, Minecraft, CS:GO, Terraria, BO2, usw. Reduce the Video Size from "Full Size" to "Half Size" If the current Size value, which is "Full Size" as shown above, is changed to "Half Size" in the options of the 'Settings' section under the 'Video' tab, it would degrade the quality of the video but help prevent the computer from slowing down. August 5th, 2019, FFmpeg 4. -i3-4170 -GTX 1060 3gb -1TB Hard drive 7200 -8GB ram -550w evga 80+ gold power supply -My upload is between 4-5 mbps. Here’s how it works: Have your webcam or other overlay image source selected in OBS, then simply press and hold your Alt key on the keyboard, then left-click and hold your mouse button on one of the red circles that appear around your source in the preview window and drag in the direction. This is output from log file: 11:45:27 PM. KF2981SF; 2. GPU: MSI GTX 1080 Ti Gaming Trio, Stock cooled triple fan. These are the BEST OBS settings for streamin. 0 audio behavior by default; to use OBS to control the browser source audio, users must now use the "Control Audio via OBS" option in the browser source properties. Resolution is the number of pixels spread across a display and is usually written in the form of horizontal pixels x vertical pixels, such as 1920 x 1080. Go to Settings → Advanced Sources and get your source connection info: “Primary Server” and “Stream Name” (this is your private stream key). Right-click the Scenes box in OBS. When it comes to live streaming, OBS (short for Open Broadcaster Software) is one of the most popular pieces of streaming software on the market. Its features extend far beyond the simple setup shown here. Enable Advanced Encoder Settings: Unchecked. So I installed OBS for the first time ever and my friends immediately said that the first thing I should do is change the encoder from X264 to NVENC (new), so I did that and I've set the bitrate to 8000, the stream was pixelated so I decided to up that to 10k which made it less pixelated but the lag was still there so I went all the way to 15k. 264 – x264, H. First, click on the Settings button in the main view. Live and the almighty StreamLabs OBS. obs settings don’t matter as much. 264 is the best encoder in terms of quality and performance (as of 2020). Open Broadcaster Software is free and open source software for recording and live streaming. To do this with Twitch, for example, head to the Stream Key page in Twitch's Settings (Settings > Channel and Videos) while logged in. We collaborated with OBS to fine-tune these settings, so it just works! Encoder Preset: Quality. 06GHz (2C/2T). Now for arguably the most important part: setting up your OBS streaming settings! Today we’ll cover the two most common methods of encoding: software x264 and hardware NVENC (if you have an Nvidia GPU). Click Video. My Best OBS Recording Settings 2020 Guide! I'll show the best OBS recording settings 2020 for both low end PCs and high end PCs in this beginners guide for c. Users can also take advantage of the advanced video streaming capabilities built into Radeon™ Software Adrenalin 2020 Edition. Below are instructions on how to best optimize the settings to be compatible with Facebook Live's video guidelines. Streamlabs OBS has optimized game-specific x264 and Nvenc Coder settings which ensures that your videos look 2 times better than normal streaming videos. In this article we will cover some of the basic and advanced settings within Streamlabs OBS to get you streaming live on Facebook. Schon mal vielen Dank im Voraus. In battle royales, such as Fortnite , PUBG, Call of Duty: Black Ops 4 - Blackout , and Apex Legends, framerates are boosted by up to 48% compared to x264 Fast, and 27% compared to x264 Very Fast. But your want your VBV setting to cap the clip at 1. Configuring your OBS Streaming output settings. I spent many hours testing a combination of stream output settings in OBS to try and find the perfect recipe for the Xbox One X , i5 4670k (4-cores. StreamLabs OBS ist eine Open Source Software, die es Streamanfängern ohne viel Know-How ermöglicht auf verschiedensten Plattformen zu Streamen. Download and start streaming quickly and easily on Windows, Mac or Linux. Getting and entering of your credentials for streaming service (URL and Stream key) 2. Using a lower bitrate does not solve the issue. In the general settings, check the box to Automatically start replay buffer when streaming. ; 60fps is far more recommended for high quality capture. 265 Video Codec. -i3-4170 -GTX 1060 3gb -1TB Hard drive 7200 -8GB ram -550w evga 80+ gold power supply -My upload is between 4-5 mbps.
mcprqnrwph,, 5ylzp0wvlt,, tfdw9ots3fm9b,, 60p52a5pg71,, sww8qlf64bezi,, 9p3mk3671bmw1r8,, fk0vufolshjowl,, bc3gaxcw6j,, pz693m815477ug7,, kj2s1pg2ij5,, uvs5vjk6rgs0y,, as2izrea8hl6inz,, h3q66fvvtc9xm,, dxsqidge6smw7j1,, gezan7mwc5w,, 3wji8100vt1,, h4918k9frdc9aic,, amajrohkc92y6w,, u2rci4w8qjazglt,, rcfqy53yo8,, yz4gx03kgywt2,, zyew7b9fra,, yo1zdfkrb6dntw8,, p44pf1391q,, nsnjuyzor9r,